<?xml version="1.0" standalone="no"?>
<!DOCTYPE svg PUBLIC "-//W3C//DTD SVG 1.1//EN" "http://www.w3.org/Graphics/SVG/1.1/DTD/svg11.dtd" >
<svg xmlns="http://www.w3.org/2000/svg">
<metadata>Generated by IcoMoon</metadata>
<defs>
<font id="MS-BO" horiz-adv-x="1024">
<font-face units-per-em="1024" ascent="960" descent="-64" />
<missing-glyph horiz-adv-x="1024" />
<glyph unicode="&#x20;" horiz-adv-x="512" d="" />
<glyph unicode="&#xe900;" glyph-name="arrow-down-fill" d="M512 320l-256 256h512l-256-256z" />
<glyph unicode="&#xe901;" glyph-name="arrow-down-line" d="M512 389.798l265.493 271.535 75.84-77.566-341.333-349.101-341.333 349.101 75.84 77.566 265.493-271.535z" />
<glyph unicode="&#xe902;" glyph-name="arrow-left-line" d="M411.132 448l271.535-265.493-77.564-75.84-349.103 341.333 349.103 341.333 77.564-75.84-271.535-265.493z" />
<glyph unicode="&#xe903;" glyph-name="arrow-left-s-line" d="M462.012 447.97l211.191-211.187-60.339-60.339-271.531 271.526 271.531 271.53 60.339-60.34-211.191-211.19z" />
<glyph unicode="&#xe904;" glyph-name="arrow-right-line" d="M612.868 448l-271.535 265.493 77.566 75.84 349.101-341.333-349.101-341.333-77.566 75.84 271.535 265.493z" />
<glyph unicode="&#xe905;" glyph-name="arrow-right-s-line" d="M562.022 447.97l-211.189 211.19 60.34 60.34 271.532-271.53-271.532-271.526-60.34 60.339 211.189 211.187z" />
<glyph unicode="&#xe906;" glyph-name="arrow-up-fill" d="M512 576l256-256h-512l256 256z" />
<glyph unicode="&#xe907;" glyph-name="arrow-up-line" d="M512 506.202l-265.493-271.535-75.84 77.564 341.333 349.103 341.333-349.103-75.84-77.564-265.493 271.535z" />
<glyph unicode="&#xe908;" glyph-name="calendar-line" d="M725.333 832h170.667c11.315 0 22.17-4.495 30.17-12.497s12.497-18.854 12.497-30.17v-682.667c0-11.315-4.497-22.17-12.497-30.17s-18.854-12.497-30.17-12.497h-768c-11.316 0-22.168 4.497-30.17 12.497s-12.497 18.854-12.497 30.17v682.667c0 11.316 4.495 22.168 12.497 30.17s18.854 12.497 30.17 12.497h170.667v85.333h85.333v-85.333h256v85.333h85.333v-85.333zM640 746.667h-256v-85.333h-85.333v85.333h-128v-170.667h682.667v170.667h-128v-85.333h-85.333v85.333zM853.333 490.667h-682.667v-341.333h682.667v341.333z" />
<glyph unicode="&#xe909;" glyph-name="check-fill" d="M426.697 312.661l392.192 392.235 60.373-60.331-452.565-452.565-271.53 271.531 60.331 60.331 211.199-211.2z" />
<glyph unicode="&#xe90a;" d="M512 21.333c-235.648 0-426.667 191.019-426.667 426.667s191.019 426.667 426.667 426.667c235.648 0 426.667-191.019 426.667-426.667s-191.019-426.667-426.667-426.667z" />
<glyph unicode="&#xe90b;" d="M771.106 579.023l-301.653-301.694-181.036 181.035 60.331 60.331 120.705-120.704 241.323 241.364 60.331-60.331z" />
<glyph unicode="&#xe90c;" d="M896 448c0-212.077-171.923-384-384-384s-384 171.923-384 384c0 212.077 171.923 384 384 384s384-171.923 384-384z" />
<glyph unicode="&#xe90d;" d="M512 21.333c-235.648 0-426.667 191.019-426.667 426.667s191.019 426.667 426.667 426.667c235.648 0 426.667-191.019 426.667-426.667s-191.019-426.667-426.667-426.667zM512 106.667c90.526 0 177.348 35.964 241.361 99.972 64.009 64.013 99.972 150.835 99.972 241.361 0 90.527-35.964 177.347-99.972 241.359-64.013 64.013-150.835 99.974-241.361 99.974-90.527 0-177.347-35.962-241.359-99.974s-99.974-150.832-99.974-241.359c0-90.526 35.962-177.348 99.974-241.361 64.012-64.009 150.832-99.972 241.359-99.972z" />
<glyph unicode="&#xe90e;" d="M170.667 832h682.667c11.315 0 22.17-4.495 30.17-12.497s12.497-18.854 12.497-30.17v-682.667c0-11.315-4.497-22.17-12.497-30.17s-18.854-12.497-30.17-12.497h-682.667c-11.316 0-22.168 4.497-30.17 12.497s-12.497 18.854-12.497 30.17v682.667c0 11.316 4.495 22.168 12.497 30.17s18.854 12.497 30.17 12.497z" />
<glyph unicode="&#xe90f;" d="M288.417 458.364l181.036-181.035 301.696 301.694-60.373 60.331-241.323-241.364-120.705 120.704-60.331-60.331z" />
<glyph unicode="&#xe910;" d="M170.667 789.333h682.667v-682.667h-682.667v682.667z" />
<glyph unicode="&#xe911;" d="M170.667 832h682.667c11.315 0 22.17-4.495 30.17-12.497s12.497-18.854 12.497-30.17v-682.667c0-11.315-4.497-22.17-12.497-30.17s-18.854-12.497-30.17-12.497h-682.667c-11.316 0-22.168 4.497-30.17 12.497s-12.497 18.854-12.497 30.17v682.667c0 11.316 4.495 22.168 12.497 30.17s18.854 12.497 30.17 12.497zM213.333 746.667v-597.333h597.333v597.333h-597.333z" />
<glyph unicode="&#xe912;" glyph-name="close-circle-fill" d="M512 21.333c-235.648 0-426.667 191.019-426.667 426.667s191.019 426.667 426.667 426.667c235.648 0 426.667-191.019 426.667-426.667s-191.019-426.667-426.667-426.667zM512 508.331l-120.661 120.704-60.373-60.373 120.704-120.661-120.704-120.661 60.373-60.373 120.661 120.704 120.661-120.704 60.373 60.373-120.704 120.661 120.704 120.661-60.373 60.373-120.661-120.704z" />
<glyph unicode="&#xe913;" glyph-name="close-fill" d="M512 523.84l265.493 265.493 75.84-75.84-265.493-265.493 265.493-265.493-75.84-75.84-265.493 265.493-265.493-265.493-75.84 75.84 265.493 265.493-265.493 265.493 75.84 75.84 265.493-265.493z" />
<glyph unicode="&#xe914;" glyph-name="customer-fill" d="M896 618.671c22.63 0 44.335-8.99 60.339-24.994s24.994-37.708 24.994-60.34v-170.667c0-22.63-8.99-44.335-24.994-60.339s-37.709-24.994-60.339-24.994h-45.312c-10.402-82.487-50.547-158.345-112.909-213.333-62.357-54.989-142.639-85.333-225.779-85.333v85.333c67.895 0 133.009 26.97 181.018 74.982 48.013 48.009 74.982 113.122 74.982 181.018v256c0 67.895-26.97 133.010-74.982 181.019-48.009 48.009-113.122 74.981-181.018 74.981s-133.010-26.971-181.019-74.981c-48.009-48.009-74.981-113.124-74.981-181.019v-298.667h-128c-22.632 0-44.337 8.99-60.34 24.994s-24.994 37.709-24.994 60.339v170.667c0 22.632 8.99 44.337 24.994 60.34s37.708 24.994 60.34 24.994h45.312c10.412 82.479 50.563 158.324 112.92 213.304s142.636 85.316 225.768 85.316c83.132 0 163.409-30.336 225.766-85.316s102.511-130.825 112.922-213.304h45.312zM331.093 286.511l45.227 72.363c40.665-25.472 87.697-38.946 135.68-38.869 47.983-0.077 95.014 13.397 135.68 38.869l45.227-72.363c-54.217-33.967-116.928-51.938-180.907-51.84-63.979-0.098-126.688 17.873-180.907 51.84z" />
<glyph unicode="&#xe915;" glyph-name="delete-fill" d="M725.333 704h213.333v-85.333h-85.333v-554.667c0-11.315-4.497-22.17-12.497-30.17s-18.854-12.497-30.17-12.497h-597.333c-11.316 0-22.168 4.497-30.17 12.497s-12.497 18.854-12.497 30.17v554.667h-85.333v85.333h213.333v128c0 11.316 4.495 22.168 12.497 30.17s18.854 12.497 30.17 12.497h341.333c11.315 0 22.17-4.495 30.17-12.497s12.497-18.854 12.497-30.17v-128zM384 490.667v-256h85.333v256h-85.333zM554.667 490.667v-256h85.333v256h-85.333zM384 789.333v-85.333h256v85.333h-256z" />
<glyph unicode="&#xe916;" glyph-name="download-line" d="M554.667 533.333h213.333l-256-256-256 256h213.333v298.667h85.333v-298.667zM170.667 149.333h682.667v298.667h85.333v-341.333c0-11.315-4.497-22.17-12.497-30.17s-18.854-12.497-30.17-12.497h-768c-11.316 0-22.168 4.497-30.17 12.497s-12.497 18.854-12.497 30.17v341.333h85.333v-298.667z" />
<glyph unicode="&#xe917;" glyph-name="end-line" d="M817.655 447.996l-264.836 264.838-60.339-60.34 204.497-204.498-204.497-204.497 60.339-60.339 264.836 264.836zM576.593 447.996l-264.837 264.838-60.34-60.34 204.498-204.498-204.498-204.497 60.34-60.339 264.837 264.836z" />
<glyph unicode="&#xe918;" glyph-name="error-warning-fill" d="M512 21.333c-235.648 0-426.667 191.019-426.667 426.667s191.019 426.667 426.667 426.667c235.648 0 426.667-191.019 426.667-426.667s-191.019-426.667-426.667-426.667zM469.333 320v-85.333h85.333v85.333h-85.333zM469.333 661.333v-256h85.333v256h-85.333z" />
<glyph unicode="&#xe919;" glyph-name="file-list-fill" d="M810.667 21.333h-597.333c-33.948 0-66.505 13.487-90.51 37.491s-37.49 56.563-37.49 90.509v682.667c0 11.316 4.495 22.168 12.497 30.17s18.854 12.497 30.17 12.497h597.333c11.315 0 22.17-4.495 30.17-12.497s12.497-18.854 12.497-30.17v-512h170.667v-170.667c0-33.946-13.487-66.505-37.491-90.509s-56.563-37.491-90.509-37.491zM768 234.667v-85.333c0-11.315 4.497-22.17 12.497-30.17s18.854-12.497 30.17-12.497c11.315 0 22.17 4.497 30.17 12.497s12.497 18.854 12.497 30.17v85.333h-85.333zM256 661.333v-85.333h341.333v85.333h-341.333zM256 490.667v-85.333h341.333v85.333h-341.333zM256 320v-85.333h213.333v85.333h-213.333z" />
<glyph unicode="&#xe91a;" glyph-name="file-text-line" d="M896 618.667v-554.368c0.038-5.602-1.024-11.157-3.132-16.35s-5.218-9.92-9.152-13.909c-3.934-3.989-8.619-7.164-13.777-9.344-5.163-2.18-10.705-3.324-16.307-3.362h-683.264c-11.229 0-21.999 4.459-29.943 12.395s-12.413 18.701-12.425 29.931v768.683c0 22.912 19.157 42.325 42.752 42.325h469.12l256.128-256zM810.667 576h-213.333v213.333h-384v-682.667h597.333v469.333zM341.333 661.333h128v-85.333h-128v85.333zM341.333 490.667h341.333v-85.333h-341.333v85.333zM341.333 320h341.333v-85.333h-341.333v85.333z" />
<glyph unicode="&#xe91b;" glyph-name="information-fill" d="M512 21.333c-235.648 0-426.667 191.019-426.667 426.667s191.019 426.667 426.667 426.667c235.648 0 426.667-191.019 426.667-426.667s-191.019-426.667-426.667-426.667zM469.333 490.667v-256h85.333v256h-85.333zM469.333 661.333v-85.333h85.333v85.333h-85.333z" />
<glyph unicode="&#xe91c;" glyph-name="ipdot" d="M554.667 448c0-23.564-19.103-42.667-42.667-42.667s-42.667 19.103-42.667 42.667c0 23.564 19.103 42.667 42.667 42.667s42.667-19.103 42.667-42.667z" />
<glyph unicode="&#xe91d;" glyph-name="lock-fill" d="M810.667 533.333h42.667c11.315 0 22.17-4.497 30.17-12.497s12.497-18.854 12.497-30.17v-426.667c0-11.315-4.497-22.17-12.497-30.17s-18.854-12.497-30.17-12.497h-682.667c-11.316 0-22.168 4.497-30.17 12.497s-12.497 18.854-12.497 30.17v426.667c0 11.315 4.495 22.17 12.497 30.17s18.854 12.497 30.17 12.497h42.667v42.667c0 39.221 7.725 78.059 22.735 114.295s37.009 69.161 64.743 96.895c27.734 27.734 60.659 49.733 96.895 64.743s75.071 22.735 114.295 22.735c39.223 0 78.059-7.725 114.295-22.735s69.158-37.009 96.892-64.743c27.738-27.734 49.737-60.659 64.747-96.895 15.006-36.236 22.733-75.073 22.733-114.295v-42.667zM725.333 533.333v42.667c0 56.579-22.477 110.842-62.485 150.849-40.004 40.008-94.268 62.484-150.848 62.484s-110.842-22.476-150.849-62.484c-40.008-40.008-62.484-94.27-62.484-150.849v-42.667h426.667zM469.333 362.667v-170.667h85.333v170.667h-85.333z" />
<glyph unicode="&#xe91e;" glyph-name="lock-line" d="M810.667 533.333h42.667c11.315 0 22.17-4.497 30.17-12.497s12.497-18.854 12.497-30.17v-426.667c0-11.315-4.497-22.17-12.497-30.17s-18.854-12.497-30.17-12.497h-682.667c-11.316 0-22.168 4.497-30.17 12.497s-12.497 18.854-12.497 30.17v426.667c0 11.315 4.495 22.17 12.497 30.17s18.854 12.497 30.17 12.497h42.667v42.667c0 39.221 7.725 78.059 22.735 114.295s37.009 69.161 64.743 96.895c27.734 27.734 60.659 49.733 96.895 64.743s75.071 22.735 114.295 22.735c39.223 0 78.059-7.725 114.295-22.735s69.158-37.009 96.892-64.743c27.738-27.734 49.737-60.659 64.747-96.895 15.006-36.236 22.733-75.073 22.733-114.295v-42.667zM213.333 448v-341.333h597.333v341.333h-597.333zM469.333 362.667h85.333v-170.667h-85.333v170.667zM725.333 533.333v42.667c0 56.579-22.477 110.842-62.485 150.849-40.004 40.008-94.268 62.484-150.848 62.484s-110.842-22.476-150.849-62.484c-40.008-40.008-62.484-94.27-62.484-150.849v-42.667h426.667z" />
<glyph unicode="&#xe91f;" glyph-name="logout-line" d="M213.333 21.333c-11.316 0-22.168 4.497-30.17 12.497s-12.497 18.854-12.497 30.17v768c0 11.316 4.495 22.168 12.497 30.17s18.854 12.497 30.17 12.497h597.333c11.315 0 22.17-4.495 30.17-12.497s12.497-18.854 12.497-30.17v-128h-85.333v85.333h-512v-682.667h512v85.333h85.333v-128c0-11.315-4.497-22.17-12.497-30.17s-18.854-12.497-30.17-12.497h-597.333zM768 277.333v128h-298.667v85.333h298.667v128l213.333-170.667-213.333-170.667z" />
<glyph unicode="&#xe920;" glyph-name="magfill" d="M649.536 298.33l-94.421-198.4c-1.788-3.75-4.459-7.010-7.787-9.498s-7.211-4.13-11.315-4.779c-4.105-0.653-8.303-0.294-12.241 1.041-3.934 1.335-7.484 3.605-10.342 6.622l-151.126 159.531c-4.038 4.258-9.415 6.997-15.232 7.765l-217.899 28.501c-4.117 0.542-8.040 2.078-11.431 4.476-3.391 2.394-6.148 5.581-8.034 9.28s-2.843 7.804-2.789 11.955c0.053 4.151 1.116 8.23 3.097 11.878l105.045 193.024c2.793 5.163 3.726 11.127 2.645 16.896l-40.235 216.021c-0.764 4.089-0.521 8.303 0.71 12.276s3.411 7.587 6.352 10.528c2.941 2.941 6.555 5.122 10.528 6.352s8.187 1.475 12.276 0.71l216.021-40.235c5.769-1.081 11.734-0.147 16.896 2.645l193.024 105.045c3.652 1.981 7.731 3.043 11.887 3.094s8.26-0.91 11.959-2.8c3.703-1.89 6.886-4.652 9.28-8.049s3.925-7.324 4.463-11.445l28.501-217.856c0.764-5.817 3.507-11.194 7.765-15.232l159.531-151.125c3.012-2.859 5.286-6.409 6.622-10.347 1.335-3.934 1.694-8.132 1.041-12.237-0.649-4.105-2.291-7.987-4.779-11.315s-5.747-5.999-9.498-7.787l-198.4-94.421c-5.312-2.526-9.591-6.805-12.117-12.117zM683.541 216.111l60.331 60.331 181.035-180.992-60.373-60.373-180.992 181.035z" />
<glyph unicode="&#xe921;" glyph-name="mail-line" d="M128 832h768c11.315 0 22.17-4.495 30.17-12.497s12.497-18.854 12.497-30.17v-682.667c0-11.315-4.497-22.17-12.497-30.17s-18.854-12.497-30.17-12.497h-768c-11.316 0-22.168 4.497-30.17 12.497s-12.497 18.854-12.497 30.17v682.667c0 11.316 4.495 22.168 12.497 30.17s18.854 12.497 30.17 12.497zM853.333 651.179l-338.261-302.933-344.405 303.872v-502.784h682.667v501.845zM192.469 746.667l322.133-284.245 317.483 284.245h-639.616z" />
<glyph unicode="&#xe922;" glyph-name="mark" d="M539.657 320l-5.026 90.223 77.939-49.779 27.43 47.113-83.2 40.444 83.2 40.444-27.43 47.112-77.939-49.778 5.026 90.223h-55.543l5.030-90.223-77.715 49.778-27.429-47.112 82.97-40.444-82.97-40.444 27.429-47.113 77.715 49.779-5.030-90.223h55.543z" />
<glyph unicode="&#xe923;" glyph-name="menu-fill" d="M85.333 789.333h853.333v-85.333h-853.333v85.333zM85.333 490.667h853.333v-85.333h-853.333v85.333zM85.333 192h853.333v-85.333h-853.333v85.333z" />
<glyph unicode="&#xe924;" glyph-name="minus-fill" d="M170.667 490.667h682.667v-85.333h-682.667v85.333z" />
<glyph unicode="&#xe925;" glyph-name="plus-fill" d="M463.236 496.764v292.57h97.527v-292.57h292.57v-97.527h-292.57v-292.57h-97.527v292.57h-292.57v97.527h292.57z" />
<glyph unicode="&#xe926;" glyph-name="printer-fill" d="M298.667 234.667h426.667v-213.333h-426.667v213.333zM810.667 106.667v213.333h-597.333v-213.333h-85.333c-11.316 0-22.168 4.497-30.17 12.497s-12.497 18.854-12.497 30.17v426.667c0 11.316 4.495 22.168 12.497 30.17s18.854 12.497 30.17 12.497h768c11.315 0 22.17-4.495 30.17-12.497s12.497-18.854 12.497-30.17v-426.667c0-11.315-4.497-22.17-12.497-30.17s-18.854-12.497-30.17-12.497h-85.333zM213.333 533.333v-85.333h128v85.333h-128zM298.667 874.667h426.667c11.315 0 22.17-4.495 30.17-12.497s12.497-18.854 12.497-30.17v-128h-512v128c0 11.316 4.495 22.168 12.497 30.17s18.854 12.497 30.17 12.497z" />
<glyph unicode="&#xe927;" glyph-name="pushpin-fill" d="M952.094 525.995l-60.373-60.331-30.165 30.165-180.992-180.992-30.165-150.869-60.373-60.331-180.994 181.035-211.2-211.2-60.331 60.331 211.2 211.2-181.035 180.992 60.331 60.372 150.912 30.165 180.994 180.992-30.165 30.165 60.331 60.373 362.027-362.068z" />
<glyph unicode="&#xe928;" glyph-name="recall-line" d="M512-21.333c-259.213 0-469.333 210.121-469.333 469.333s210.121 469.333 469.333 469.333c259.213 0 469.333-210.121 469.333-469.333s-210.121-469.333-469.333-469.333zM512 588.8h-187.733v-93.867h422.4l-234.667 234.667v-140.8zM277.333 401.067l234.667-234.667v140.8h187.733v93.867h-422.4z" />
<glyph unicode="&#xe929;" glyph-name="settings-fill" d="M424.706 865.698c57.555 12.069 116.981 12.098 174.547 0.085 3.836-25.314 13.329-49.437 27.767-70.578 14.443-21.141 33.463-38.755 55.646-51.534 22.17-12.823 46.942-20.483 72.478-22.411 25.54-1.928 51.183 1.926 75.021 11.275 39.181-43.864 68.86-95.362 87.168-151.254-19.994-15.982-36.13-36.264-47.211-59.34-11.081-23.074-16.819-48.354-16.789-73.95 0-53.931 25.003-102.016 64.085-133.291-18.415-55.846-48.132-107.302-87.296-151.168-23.834 9.34-49.468 13.193-74.995 11.264-25.532-1.929-50.295-9.583-72.461-22.4-22.165-12.774-41.169-30.379-55.603-51.503s-23.923-45.231-27.767-70.524c-57.545-12.096-116.975-12.156-174.547-0.171-3.817 25.335-13.299 49.485-27.741 70.647-14.442 21.167-33.472 38.801-55.672 51.593-22.171 12.817-46.946 20.467-72.483 22.387s-51.178-1.941-75.016-11.294c-39.185 43.874-68.864 95.39-87.168 151.296 19.985 15.974 36.116 36.241 47.195 59.302 11.080 23.057 16.823 48.32 16.805 73.903 0.021 25.604-5.73 50.884-16.825 73.963-11.095 23.075-27.249 43.354-47.26 59.327 18.418 55.846 48.133 107.302 87.296 151.168 23.836-9.342 49.471-13.193 74.999-11.265s50.295 9.585 72.457 22.401c22.167 12.774 41.172 30.377 55.606 51.503s23.923 45.229 27.765 70.524v0.043zM512 319.991c33.95 0 66.509 13.487 90.513 37.491s37.487 56.559 37.487 90.509c0 33.946-13.483 66.505-37.487 90.509s-56.563 37.49-90.513 37.49c-33.946 0-66.505-13.486-90.508-37.49-24.005-24.005-37.49-56.564-37.49-90.509 0-33.95 13.486-66.505 37.49-90.509 24.003-24.004 56.562-37.491 90.508-37.491z" />
<glyph unicode="&#xe92a;" glyph-name="shield-fill" d="M512 917.333l350.592-77.909c9.476-2.106 17.95-7.38 24.021-14.95 6.076-7.571 9.387-16.986 9.387-26.692v-426.112c-0.004-42.142-10.411-83.635-30.298-120.789s-48.64-68.826-83.708-92.203l-269.995-180.011-269.995 180.011c-35.060 23.373-63.81 55.036-83.697 92.181-19.887 37.15-30.298 78.63-30.308 120.768v426.155c0.002 9.706 3.313 19.121 9.386 26.692s14.547 12.844 24.022 14.95l350.592 77.909zM512 661.333c-18.786-0.001-37.043-6.199-51.947-17.635-14.899-11.435-25.613-27.468-30.477-45.612-4.86-18.144-3.599-37.385 3.588-54.74 7.189-17.356 19.9-31.854 36.169-41.245v-182.101h85.333l0.043 182.101c16.269 9.395 28.983 23.898 36.173 41.255 7.185 17.359 8.444 36.604 3.575 54.751-4.864 18.146-15.586 34.179-30.494 45.611-14.912 11.432-33.178 17.624-51.964 17.615z" />
<glyph unicode="&#xe92b;" glyph-name="start-line" d="M206.333 447.996l264.835-264.836 60.343 60.339-204.499 204.497 204.499 204.498-60.343 60.34-264.835-264.838zM447.394 447.996l264.836-264.836 60.343 60.339-204.497 204.497 204.497 204.498-60.343 60.34-264.836-264.838z" />
<glyph unicode="&#xe92c;" glyph-name="truck-fill" d="M332.53 100.271c27.159 23.561 44.904 56.132 49.976 91.729h216.32c5.073-35.597 22.818-68.169 49.975-91.729 27.162-23.565 61.909-36.54 97.865-36.54s70.703 12.975 97.865 36.54c27.157 23.561 44.902 56.132 49.975 91.729h86.827v253.611l-128 173.056h-128v85.333c0 11.316-4.497 22.168-12.497 30.17s-18.854 12.497-30.17 12.497h-597.333c-11.316 0-22.168-4.495-30.17-12.497s-12.497-18.854-12.497-30.17v-512h44.16c5.072-35.597 22.818-68.169 49.976-91.729 27.159-23.565 61.908-36.54 97.864-36.54s70.705 12.975 97.864 36.54zM896 405.333h-170.667v128h84.992l85.675-115.84v-12.16zM791.936 168.085c-12.006-12.006-28.288-18.752-45.269-18.752s-33.263 6.746-45.269 18.752c-12.006 12.006-18.752 28.288-18.752 45.269s6.746 33.263 18.752 45.269c12.006 12.006 28.288 18.752 45.269 18.752s33.263-6.746 45.269-18.752c12.006-12.006 18.752-28.288 18.752-45.269s-6.746-33.263-18.752-45.269zM293.795 237.824c3.216-7.765 4.872-16.085 4.872-24.491 0-16.973-6.743-33.254-18.745-45.257s-28.281-18.743-45.255-18.743c-16.974 0-33.253 6.741-45.255 18.743s-18.745 28.284-18.745 45.257c0 8.405 1.655 16.725 4.872 24.491s7.93 14.822 13.873 20.766c5.943 5.939 12.998 10.654 20.763 13.871s16.087 4.873 24.492 4.873c8.404 0 16.727-1.655 24.492-4.873s14.82-7.932 20.763-13.871c5.943-5.943 10.657-13.001 13.873-20.766z" />
<glyph unicode="&#xe92d;" glyph-name="user-fill" d="M853.333 21.333h-682.667v85.333c0 56.58 22.476 110.844 62.484 150.848 40.008 40.009 94.27 62.485 150.849 62.485h256c56.58 0 110.844-22.477 150.848-62.485 40.009-40.004 62.485-94.268 62.485-150.848v-85.333zM512 405.333c-33.617 0-66.906 6.622-97.967 19.486-31.059 12.868-59.281 31.723-83.052 55.497-23.772 23.77-42.629 51.989-55.494 83.051-12.865 31.059-19.487 64.349-19.487 97.967s6.621 66.908 19.487 97.967c12.865 31.059 31.722 59.281 55.494 83.052s51.993 42.629 83.052 55.494c31.061 12.865 64.35 19.487 97.967 19.487 67.895 0 133.009-26.971 181.018-74.981 48.013-48.009 74.982-113.124 74.982-181.019s-26.97-133.009-74.982-181.018c-48.009-48.013-113.122-74.982-181.018-74.982z" />
<glyph unicode="&#xe92e;" glyph-name="user-line" d="M170.667 21.333c0 90.526 35.962 177.348 99.974 241.361 64.012 64.009 150.832 99.972 241.359 99.972 90.526 0 177.348-35.964 241.361-99.972 64.009-64.013 99.972-150.835 99.972-241.361h-85.333c0 67.895-26.97 133.009-74.982 181.018-48.009 48.013-113.122 74.982-181.018 74.982s-133.010-26.97-181.019-74.982c-48.009-48.009-74.981-113.122-74.981-181.018h-85.333zM512 405.333c-141.44 0-256 114.56-256 256s114.56 256 256 256c141.44 0 256-114.56 256-256s-114.56-256-256-256zM512 490.667c94.293 0 170.667 76.373 170.667 170.667s-76.373 170.667-170.667 170.667c-94.293 0-170.667-76.373-170.667-170.667s76.373-170.667 170.667-170.667z" />
<glyph unicode="&#xe92f;" glyph-name="user-star-fill" d="M512 362.667v-341.333h-341.333c0 90.526 35.962 177.348 99.974 241.361 64.012 64.009 150.832 99.972 241.359 99.972zM768 42.667l-125.397-65.92 23.936 139.605-101.419 98.901 140.203 20.395 62.677 127.019 62.72-127.019 140.16-20.395-101.419-98.901 23.893-139.605-125.355 65.92zM512 405.333c-141.44 0-256 114.56-256 256s114.56 256 256 256c141.44 0 256-114.56 256-256s-114.56-256-256-256z" />
<glyph unicode="&#xe930;" d="M938.667 448c0-235.641-191.025-426.667-426.667-426.667s-426.667 191.025-426.667 426.667c0 235.641 191.025 426.667 426.667 426.667s426.667-191.025 426.667-426.667z" />
<glyph unicode="&#xe931;" d="M507.797 652.073c-115.442 0-209.047-79.9-209.047-178.519 0-63.347 38.77-118.967 96.994-150.711l-19.698-79.488c-0.753-2.441-0.128-5.026 1.508-6.784 1.126-1.229 2.63-1.903 4.262-1.903 1.259 0 2.51 0.542 3.641 1.489l84.697 61.862c12.301-1.899 24.849-2.982 37.645-2.982 115.439 0 209.054 79.898 209.054 178.517s-93.615 178.519-209.054 178.519z" />
<glyph unicode="&#xe932;" glyph-name="ic-checkbox-fill" d="M288.417 458.364l181.036-181.035 301.696 301.694-60.373 60.331-241.323-241.364-120.705 120.704-60.331-60.331z" />
</font>
</defs>
</svg>
